Posted : 1 Week ago

  1. Back.To.The.Good.Times.2018.CHINESE.BRRip.XviD.MP3-VXT.avi
  2. General
  3. Complete name                            : D:\Back.To.The.Good.Times.2018.CHINESE.BRRip.XviD.MP3-VXT\Back.To.The.Good.Times.2018.CHINESE.BRRip.XviD.MP3-VXT.avi
  4. Format                                   : AVI
  5. Format/Info                              : Audio Video Interleave
  6. Format profile                           : OpenDML
  7. File size                                : 1.49 GiB
  8. Duration                                 : 1 h 58 min
  9. Overall bit rate                         : 1 806 kb/s
  10. Movie name                               : RARBG - Back.To.The.Good.Times.2018.CHINESE.BRRip.XviD.MP3-VXT
  11. Writing application                      : Lavf58.20.100
  12. Comment                                  : RARBG - Back.To.The.Good.Times.2018.CHINESE.BRRip.XviD.MP3-VXT
  13.  
  14. Video
  15. ID                                       : 0
  16. Format                                   : MPEG-4 Visual
  17. Format profile                           : [email protected]
  18. Format settings, BVOP                    : No
  19. Format settings, QPel                    : No
  20. Format settings, GMC                     : No warppoints
  21. Format settings, Matrix                  : Default (H.263)
  22. Codec ID                                 : XVID
  23. Codec ID/Hint                            : XviD
  24. Duration                                 : 1 h 58 min
  25. Bit rate                                 : 1 599 kb/s
  26. Width                                    : 720 pixels
  27. Height                                   : 300 pixels
  28. Display aspect ratio                     : 2.40:1
  29. Original display aspect ratio            : 2.40:1
  30. Frame rate                               : 24.000 FPS
  31. Color space                              : YUV
  32. Chroma subsampling                       : 4:2:0
  33. Bit depth                                : 8 bits
  34. Scan type                                : Progressive
  35. Compression mode                         : Lossy
  36. Bits/(Pixel*Frame)                       : 0.309
  37. Stream size                              : 1.32 GiB (89%)
  38. Title                                    : RARBG - Back.To.The.Good.Times.2018.CHINESE.BRRip.XviD.MP3-VXT
  39. Writing library                          : Lavc58.35.100
  40.  
  41. Audio
  42. ID                                       : 1
  43. Format                                   : MPEG Audio
  44. Format version                           : Version 1
  45. Format profile                           : Layer 3
  46. Format settings                          : Joint stereo / MS Stereo
  47. Codec ID                                 : 55
  48. Codec ID/Hint                            : MP3
  49. Duration                                 : 1 h 58 min
  50. Bit rate mode                            : Constant
  51. Bit rate                                 : 192 kb/s
  52. Channel(s)                               : 2 channels
  53. Sampling rate                            : 48.0 kHz
  54. Compression mode                         : Lossy
  55. Stream size                              : 162 MiB (11%)
  56. Alignment                                : Aligned on interleaves
  57. Interleave, duration                     : 24  ms (0.58 video frame)
  58. Interleave, preload duration             : 24  ms
  59. Title                                    : RARBG - Back.To.The.Good.Times.2018.CHINESE.BRRip.XviD.MP3-VXT
  60. Writing library                          : LAME3.99.5
  61.  
  62.  
  63.  
  64. ===================================
  65. Back.To.The.Good.Times.2018.CHINESE.720p.BluRay.H264.AAC-VXT.mp4
  66. General
  67. Complete name                            : D:\Back.To.The.Good.Times.2018.CHINESE.720p.BluRay.H264.AAC-VXT\Back.To.The.Good.Times.2018.CHINESE.720p.BluRay.H264.AAC-VXT.mp4
  68. Format                                   : MPEG-4
  69. Format profile                           : Base Media
  70. Codec ID                                 : isom (isom/iso2/avc1/mp41)
  71. File size                                : 1.43 GiB
  72. Duration                                 : 1 h 58 min
  73. Overall bit rate                         : 1 731 kb/s
  74. Movie name                               : Back.To.The.Good.Times.2018.CHINESE.720p.BluRay.H264.AAC-VXT
  75. Encoded date                             : UTC 2019-10-09 11:44:16
  76. Tagged date                              : UTC 2019-10-09 11:44:16
  77. Writing application                      : Lavf58.20.100
  78. Comment                                  : Back.To.The.Good.Times.2018.CHINESE.720p.BluRay.H264.AAC-VXT
  79.  
  80. Video
  81. ID                                       : 1
  82. Format                                   : AVC
  83. Format/Info                              : Advanced Video Codec
  84. Format profile                           : [email protected]
  85. Format settings                          : CABAC / 4 Ref Frames
  86. Format settings, CABAC                   : Yes
  87. Format settings, Reference frames        : 4 frames
  88. Codec ID                                 : avc1
  89. Codec ID/Info                            : Advanced Video Coding
  90. Duration                                 : 1 h 58 min
  91. Bit rate                                 : 1 500 kb/s
  92. Width                                    : 1 280 pixels
  93. Height                                   : 534 pixels
  94. Display aspect ratio                     : 2.40:1
  95. Original display aspect ratio            : 2.40:1
  96. Frame rate mode                          : Constant
  97. Frame rate                               : 24.000 FPS
  98. Color space                              : YUV
  99. Chroma subsampling                       : 4:2:0
  100. Bit depth                                : 8 bits
  101. Scan type                                : Progressive
  102. Bits/(Pixel*Frame)                       : 0.091
  103. Stream size                              : 1.24 GiB (87%)
  104. Writing library                          : x264 core 152 r2851M ba24899
  105. Encoding settings                        : cabac=1 / ref=4 / deblock=1:-1:-1 / analyse=0x3:0x113 / me=umh / subme=9 / psy=1 / psy_rd=1.00:0.15 / mixed_ref=1 / me_range=24 / chroma_me=1 / trellis=2 / 8x8dct=1 / cqm=0 / deadzone=21,11 / fast_pskip=1 / chroma_qp_offset=-3 / threads=16 / lookahead_threads=4 / sliced_threads=0 / nr=0 / decimate=1 / interlaced=0 / bluray_compat=0 / constrained_intra=0 / bframes=3 / b_pyramid=2 / b_adapt=2 / b_bias=0 / direct=3 / weightb=1 / open_gop=0 / weightp=2 / keyint=250 / keyint_min=25 / scenecut=40 / intra_refresh=0 / rc_lookahead=50 / rc=2pass / mbtree=1 / bitrate=1500 / ratetol=1.0 / qcomp=0.60 / qpmin=0 / qpmax=69 / qpstep=4 / cplxblur=20.0 / qblur=0.5 / vbv_maxrate=31250 / vbv_bufsize=31250 / nal_hrd=none / filler=0 / ip_ratio=1.40 / aq=3:1.00
  106. Encoded date                             : UTC 2019-10-09 11:44:16
  107. Tagged date                              : UTC 2019-10-09 11:44:16
  108. Codec configuration box                  : avcC
  109.  
  110. Audio
  111. ID                                       : 2
  112. Format                                   : AAC LC
  113. Format/Info                              : Advanced Audio Codec Low Complexity
  114. Codec ID                                 : mp4a-40-2
  115. Duration                                 : 1 h 58 min
  116. Bit rate mode                            : Constant
  117. Bit rate                                 : 224 kb/s
  118. Channel(s)                               : 6 channels
  119. Channel layout                           : C L R Ls Rs LFE
  120. Sampling rate                            : 48.0 kHz
  121. Frame rate                               : 46.875 FPS (1024 SPF)
  122. Compression mode                         : Lossy
  123. Stream size                              : 189 MiB (13%)
  124. Language                                 : Chinese
  125. Default                                  : Yes
  126. Alternate group                          : 1
  127. Encoded date                             : UTC 2019-10-09 11:44:16
  128. Tagged date                              : UTC 2019-10-09 11:44:16
  129.  
  130.  
  131.